AllForSound
» » Tosca - Suzuki

Tosca - Suzuki mp3 flac

Tosca - Suzuki mp3 flac Performer: Tosca
Title: Suzuki
Style: Trip Hop, Downtempo
Released: 2000
FLAC album: 2193 mb
MP3 album: 1266 mb
Rating: 4.7
Genre: Electronic

Tracklist

The Key7:00
Pearl Off3:07
Ocean Beat4:32
Bass On The Boat6:03
Suzuki6:04
Annanas6:34
Doris Dub4:00
Honey5:57
Orozco5:25
John Tomes5:05
Pearl In0:25
Busenfreund5:16

Versions

CategoryArtistTitle (Format)LabelCategoryCountryYear
G-Stone CD 008Tosca Suzuki ‎(CD, Album)G-Stone RecordingsG-Stone CD 008Austria2000
K7 085LPTosca Suzuki ‎(2xLP, Album)G-Stone Recordings, !K7 RecordsK7 085LPGermany2000
!K7085CDTosca Suzuki ‎(CD, Album)G-Stone Recordings!K7085CDUS2000
K7 085CDTosca Suzuki ‎(CD, Album)G-Stone Recordings, !K7 RecordsK7 085CDGermany2000
G-Stone CD 008Tosca Suzuki ‎(CD, Album, Promo)G-Stone RecordingsG-Stone CD 008Austria2000
K7 085CDTosca Suzuki ‎(CD, Album, Unofficial)G-Stone Recordings , !K7 Records K7 085CDRussia2000
K7 085LPTosca Suzuki ‎(2xLP, Album, RE)G-Stone Recordings, !K7 RecordsK7 085LPEurope2017

Album

Tosca - Suzuki full album. K7 Records от лица компании K7 Records EMI Music Publishing, ASCAP, Kobalt Music Publishing, SODRAC, UMPG Publishing и другие авторские общества. Suzuki by Tosca, released 06 March 2000 1. Pearl In 2. Suzuki 3. Annanas 4. Orozco 5. Busenfreund 6. Honey 7. Boss On The Boat 8. John Tomes 9. Ocean Beat 10. The Key 11. Doris Dub 12. Pearl Off. It is Dorfmeister's second such project, the first being Kruder & Dorfmeister. Tosca's first album, Opera, was released in 1997 by G-Stone Recordings. Suzuki is the second studio album by Austrian duo Tosca, released by Studio K7 and G-Stone Recordings in 2000. Unlike many of Tosca's subsequent releases, Suzuki is essentially an instrumental album, with vocal samples integrated throughout, but in such a way that they become a part of the instrumentation. The album is dedicated to the Zen master Shunryu Suzuki. The dedication can be found on the inside of the front cover. Tosca's second album Suzuki takes a lighter, airier approach to the trip-hop terrain that Opera explored. The spare, shimmering title track's delicate synth textures, minimal beats, mellow rhythms, and breathy vocal samples set the tone for the rest of the album's laid-back tracks. Though Orozco, Bass on the Boat, and Ocean Beat are more immediate variations on Tosca's relaxed sound, for the most part, Suzuki offers a locked groove of hypnotic, deeply chilled-out epics. Track Listing. Dehli 9. 2003 сингл. Going Going Going. Outta Here. Joe Si Ha. 2009 сингл. 2005 сингл. No Hassle. Tu, io e domani. Chillout Album 3. Album 2000 12 Songs. Electronica 2000. Tosca Format: Audio CD. First press since original release in 2000, Suzuki is the second studio album by Austrian downtempo, trip-hop duo Tosca, released by Studio K7 and G-Stone Recor- dings in 2000. Unlike many of Tosca's subsequent relea- ses, Suzuki is essentially an instrumental album, with vocal samples integrated throughout, but in such a way that they become a part of the instrumentation. More moody musical fairytales from Richard Dorfmeister, this time with Rupert Huber under the guise of Tosca. Tosca is an electronic music project of Richard Dorfmeister and Rupert Huber formed 1994 in Vienna. Tosca's first album, Opera, was released iTosca is an electronic music project of Richard Dorfmeister and Rupert Huber formed 1994 in Vienna. T read more. Tosca's first album, Opera, was released i read more. Similar Artists. Tosca - Suzuki In Dub 2000. To favorites 0 Download album. Listen album. Electronic Downtempo. Songs in album Tosca - Suzuki In Dub 2000. Tosca - Suzuki Burnt Friedman - Nonplace Dub. Tosca - Orozco Dubphonic Dub. Tosca - Busenfreund Dub. Tosca - Annanas Cosmic Rocker Dub. Tosca - Busenfreund Dzihan And Kamien Dub. Tosca - Annanas Uko Dub. Tosca - Busenfreund Philippe Lussan Dub. Tosca - Boss On The Boat Deadbeats Version. Stream Tosca - Suzuki by W-O-S from desktop or your mobile device. Tosca - Suzuki

Performer

Tosca is an opera in three acts by Giacomo Puccini to an Italian libretto by Luigi Illica and Giuseppe Giacosa. It premiered at the Teatro Costanzi in Rome on 14 January 1900. The work, based on Victorien Sardou's 1887 French-language dramatic play, La Tosca, is a melodramatic piece set in Rome in June 1800, with the Kingdom of Naples's control of Rome threatened by Napoleon's invasion of Italy. It contains depictions of torture, murder and suicide, as well as some of Puccini's best-known lyrical arias. wav WAVE TRACK 04 AUDIO PERFORMER Tosca TITLE Fuck Dub Baby Mammoth Mix Nr. WAVE TRACK 06 AUDIO PERFORMER Tosca TITLE Chocolate Elvis INDEX 01 00:00:00 TRACK 07 AUDIO PERFORMER Tosca TITLE Ambient Emely INDEX 00 05:00:20 FILE 07 - Ambient WAVE INDEX 01 00:00:00 FILE 08 - WAVE TRACK 08 AUDIO PERFORMER Tosca TITLE Postgirl INDEX 01 00:00:00 FILE 09 - Listen My WAVE TRACK. 2015 The Outta Here Versions. Have Some Fun. 2014 сингл. Outta Here. Tlapa The Odeon Remixes. Live at Odeon. 2013 Live at Odeon. Joe Si Ha. Caffe Barista Chillout Compilation. 2017 Music for a cup of Coffee. K7 Kollections 02: Classics. Tosca performs Tosca is performance artist specializing in Roue Cyr. Currently Tosca is working on combining Roue Cyr with different styles of dance and music sometimes Oriental, sometimes Burlesque, sometimes Classical and other times with raging Music Entertainment. Empresa representante de Artístas y Organizadora de Eventos USA Y MÉXICO. Background Music. Cool & Cocky. Tosca, opera. Composed By. Giacomo Puccini. Track Listing - Disc 1. Act 1. Tosca Tango Orchestra, Music Department: Waking Life. 2009 Rehab for Rejects TV Movie performer: Tosca Tango Orchestra tracks were used from the following albums:, writer: Tosca Tango Orchestra tracks were used from the following albums: Getting Started Contributor Zone . Contribute to This Page. Tosca Tosca is an electronic music project of Richard Dorfmeister and Rupert Huber formed 1994 in Vienna. It is Dorfmeister's second such project, the first being Kruder & Dorfmeister. Tosca's first album, Opera, was released in 1997 by G-Stone Recordings. Tosca is an electronic music project of Richard Dorfmeister and Rupert Huber formed 1994 in Vienna. Do you know anything about this type of music Start the wiki. Top Artists. 744,822 listeners. dari TOSCA,band yang lahir di kota jember,jawa timur, dengan nuansa pop rock personil kami yaitu ditovokal,ryangitar,odebass,okakeyboard,ajidrumselamat datang di page kita guys. 9 Tracks. Stream Tracks and Playlists from Tosca Band on your desktop or mobile device

Video

Comments: (20)