AllForSound
» » Keane - Keane

Keane - Keane mp3 flac

Keane - Keane mp3 flac Performer: Keane
Title: Keane
Style: Pop Rock, Soft Rock
Released: 1981
FLAC album: 1487 mb
MP3 album: 2725 mb
Rating: 4.6
Genre: Rock

Tracklist

Kill Or Be Killed
Anything Less Than Love
My Special Way
You Got The Better Of Me
Judy
Tryin' To Kill A Saturday Night
Bad Little Baby Girl
I Love My Life
Lorelei
Baby I'm Dead

Versions

CategoryArtistTitle (Format)LabelCategoryCountryYear
25AP 2099Keane Keane ‎(LP, Album)CBS/Sony25AP 2099Japan1981
COOL-068Keane Keane ‎(CD, Album, OBI)Cool SoundCOOL-068Japan2001
COOL-136Keane Keane ‎(CD, Album, Promo, RE, RM, Hi )Cool SoundCOOL-136Japan2014
COOL-145Keane Keane ‎(CD, Album, RE, RM, Blu)Cool SoundCOOL-145Japan2018

Album

Artist: KEANE Album: KEANE Year: 1981 Genre: Rock'n'Roll, Pop Rock, and Effect Keane album. Cause and Effect is the fifth studio album by English alternative rock band Keane, released on 20 September 2019 through Island Records. It is their first full-length album since Strangeland 2012 and hiatus from early 2014 to late 2018. The first single, The Way I Feel, premiered on 6 June 2019 on BBC Radio 2 and YouTube. The second single, Love Too Much, premiered on 8 August 2019 on BBC Radio 2 and YouTube. Город: everywhere. Ищете треки из альбома The Best Of Keane исполнителя Keane Тогда заходите на наш сайт - слушайте музыку онлайн и скачивайте бесплатно. Everybody's Changing Keane. Somewhere Only We Know Keane. Kathleen Keane - Kathleen Keane. Лента с персональными рекомендациями и музыкальными новинками, радио, подборки на любой вкус, удобное управление своей коллекцией. Listen free to Keane Keane The Sun Ain't Gonna Shine Anymore, Your Eyes Open Mo Mental Mix and more. 10 tracks . Featuring new single 'Stupid things'. Click to listen view tour dates. Sign me up for updates from Universal Music about new music, competitions, exclusive promotions & events from artists similar to Keane. Keane might be on a break, but a collection of their best music leaves us for now with a glowing reminder of their infectiously soothing talents. When Keane first emerged in the early to mid-noughties they threatened at first glance to be something akin to a new version of Ben Folds Five, following as they did the new millennias fashion for missing out key instruments from the traditional band line up. Finally, we hit the end curve of Keanes career to date and their 2012 number one album -Strangeland which saw more formula-meddling in the addition of a bass player to the line up. Keane is a beloved English rock band originating from Battle, East Sussex comprised of Tim. NothingInMyWay Live from our Cause and Effect album release party at The De La Warr Pavilion in Bexhill last September. The Best of Keane. Released 2013. The Best of Keane Tracklist. Everybody's Changing Lyrics. Somewhere Only We Know Lyrics

Performer

Sign me up for updates from Universal Music about new music, competitions, exclusive promotions & events from artists similar to up to date with all of the latest news, music & live announcements. Newsletter Sign Up. choose country. Sign me up for updates from Universal Music about new music, competitions, exclusive promotions & events from artists similar to Keane. 4 Covers of Keane songs by other artists. 5 Notes. Original songs. Original performer. The Downtown Lights The Blue Nile, MSN Music Something Sessions, 2012. Featured songs on massive media. Listen to music from Keane like Somewhere Only We Know, Everybody's Changing & more. Find the latest tracks, albums, and images from Keane. Keane is an English rock band, first established in Battle, East Sussex, United Kingdom in 1995, taking their current name in 1997. The group is comprised of composer, bassist, and pianist Tim Rice-Oxley, lead vocalist Tom Chaplin and drummer Richard Hughes. Their original line-up included fo read more. Unlimited free Keane music - Click to play Somewhere Only We Know, Everybody's Changing and whatever else you want Keane are an English alternative rock band from Battle, East Sussex, formed in 1997. The group curre. Keane are an English alternative rock band from Battle, East Sussex, formed in 1997. The group currently comprises Tim Rice-Oxley piano, backing vocals, Tom Chaplin lead vocals, guitar, Richard Hughes drums, percussion and Jesse Quin bass guitar, percussion, who joined in 2008 as a permanent studio member and performer. Their original Read More. Keane Music. Keane es la banda de rock procedente de Battle, East Sussex, en el sureste de Inglaterra. Hasta ahora todos sus materiales. Keane at a very special show in aid of Battle Festival at Battle Abbey on August 11, 2018. Complete list of Keane music featured in tv shows and movies. Keane music featured in movies and TV shows: A Bad Dream. Under the Iron Sea. Music video by Keane performing Somewhere Only We Know. C 2003 Island Records, a division of Universal Music Operations of the Week: Jessica Lange 11 March 2017 . Around The Web. 2019 Keane: The Way I Feel Video short. 2016 Keane: Tear Up This Town Video short. 2014 Somewhere Only We Know Video short original music by. 2013 Keane: Higher Than the Sun Video short. 2012 Keane: Disconnected Video short

Video

Comments: (2)
Rrd
foobar2000 1.4.4 / Dynamic Range Meter 1.1.1
log date: 2019-05-29 19:57:57

--------------------------------------------------------------------------------
Analyzed: Keane / Keane [JP 2001 CD]
--------------------------------------------------------------------------------

DR Peak RMS Duration Track
--------------------------------------------------------------------------------
DR8 0.00 dB -10.52 dB 3:26 01-Tryin' To Kill A Saturday Night
DR8 -0.02 dB -10.11 dB 3:53 02-Bad Little Baby Girl
DR9 -0.05 dB -10.49 dB 3:19 03-You Got The Better Of Me
DR8 -0.01 dB -11.66 dB 3:57 04-Kill Or Be Killed
DR10 -0.04 dB -13.00 dB 4:35 05-My Special Way
DR9 0.00 dB -11.36 dB 3:29 06-Baby I'm Dead
DR8 0.00 dB -10.77 dB 3:03 07-I Love My Life
DR9 0.00 dB -11.97 dB 3:12 08-Anything Less Than Love
DR10 -0.09 dB -13.83 dB 4:16 09-Lorelei
DR9 0.00 dB -11.41 dB 3:57 10-Judy
--------------------------------------------------------------------------------

Number of tracks: 10
Official DR value: DR9

Samplerate: 44100 Hz
Channels: 2
Bits per sample: 16
Bitrate: 988 kbps
Codec: ALAC
================================================================================
crazy mashine
are you serial killer or what mr keane brothers !