AllForSound
» » Jon Gibson - Standing On The One

Jon Gibson - Standing On The One mp3 flac

Jon Gibson - Standing On The One mp3 flac Performer: Jon Gibson
Title: Standing On The One
Style: Ballad
Released: 1983
FLAC album: 1594 mb
MP3 album: 1969 mb
Rating: 4.6
Genre: Pop

Tracklist

Nation In Need
Standing On The One
Startin It All Again
She Told Me So
Are You Gonna Stay With Me Again
I Love Here Anyway
That Ain`t No Way To Liven
So In Love With You
It`s True

Versions

CategoryArtistTitle (Format)LabelCategoryCountryYear
96-0258-1Jon Gibson Standing On The One ‎(LP)Warner Bros. Records96-0258-1Germany1983
60258-1Jon Gibson Standing On The One ‎(LP, Album, Promo)Constellation Records60258-1US1983
AGEK-2560Jon Gibson Standing On The One ‎(CD, Album, RE, Sli)UnidiscAGEK-2560Canada2008

Album

Album 1983 10 Songs. She Told Me So. Standing On the One. That Ain't No Way to Live. Are You Gonna Stay With Me Again. Listen free to Jon Gibson Standing On The One Start It All Again, She Told Me So and more. 10 tracks 39:45. Standing on the One. Your Rating. Overview . Play jigsaw puzzles for free Home. Jon Gibson. Standing On the One, 1983. Start It All Again, 04:57. She Told Me So, 05:35. Standing On the One, 04:49. Are You Gonna Stay With Me Again, 04:29. I Love Her Anyway, 03:50. It's True, 03:08. So In Love With You, 04:39. Nation In Need, 03:52. She Told Me So, 03:43. In Good Company - Jon Gibson. Лента с персональными рекомендациями и музыкальными новинками, радио, подборки на любой вкус, удобное управление своей коллекцией. Album by Jon Gibson. Start It All Again. Standing On The One. That Ain't No Way To Live. Are You Gonna Stay. I Love Her Anyway. It's True. So In Love With You. Nation In Need. search for Jon Gibson , Standing On The One. I'm on a Mission - Jon Gibson. The Storyteller. Исполнитель: Jon Gibson. 2012 soul. Jon Robert Gibson born January 3, 1964 is an American singer, songwriter and musician. Originally a blue-eyed soul singer, he switched to contemporary Christian music in the late-1980s. Gibson scored a number of hit singles, including Jesus Loves Ya which spent a then-record 11 weeks at No. 1 on the CCM charts in 1991, Love Come Down 1990 and Friend in You 1988. or open in our Desktop app

Performer

Jon Robert Gibson born January 3, 1964 is an American singer, songwriter and musician. Originally a blue-eyed soul singer, he switched to contemporary Christian music in the late-1980s. Gibson scored a number of hit singles, including Jesus Loves Ya which spent a then-record 11 weeks at No. 1 on the CCM charts in 1991, Love Come Down 1990 and Friend in You 1988. Listen to music from Jon Gibson like Song I, Melody III & more. There are two musicians using the name Jon Gibson. 1 Jon Gibson b. March 11. He was a founding member and longtime performer with the Philip Glass Ensemble for many yeListen to music from Jon Gibson like Song I, Melody III & more. Find the latest tracks, albums, and images from Jon Gibson. March 11, 1940 Los Angeles, California is a flautist, saxophonist, and composer who uses other instruments from around the world in his performances and is known for his jazz and classical contributions. He was a founding read more. He was a founding member and longtime performer with the Philip Glass Ensemble for many ye read more. contemporary classical. Jon Gibson Music, Twin Falls, Idaho. Jon Gibson. Tough to describe and tougher to classify, Gibson's a white guy who sounds like Stevie Won. Jon Gibson: American singer, songwriter and musician. Gibson scored a number of hit singles, including Jesus Loves Ya, Love Come Down and Friend in You. Relative Calm: IV. Return, Relative Calm: III. Extensions RC Reach, Relative Calm: II. Q-Music Race и другие песни. Jon Gibson Фото исполнителя Jon Gibson. All songs by Jon Gibson. Phill Niblock, Jon Gibson. Darmstadt Essential Repertoire. Drone Ambient Instrumental Neoclassical. Two Solo Pieces. Minimal Neoclassical. Visitations I & II Thirties. Biography by Blue Gene Tyranny. Follow Artist. For many years performer with the Philip Glass Ensemble, and also performedJon Gibson. Saxophonist, flutist, and employs many world-music instruments in his ensembles, and uses delay systems in his solo performances. For many years performer with the Philip Glass Ensemble, and also performed Read Full Biography. Jon Gibson achieved some degree of renown as a regular member of Philip Glass' original ensemble, but his own career as a composer has been somewhat. Two Solo Robert Gibson is an American singer. She Told Me So. Categories: Artists. American singers. 92 fans. Top Tracks. Phase Patterns feat. Steve Reich. Four Organs: Phase Patterns. Music tagged with

Video

Comments: (1)
Jerinovir
foobar2000 1.3.17 / Dynamic Range Meter 1.1.1
log date: 2018-07-14 16:07:54

--------------------------------------------------------------------------------
Analyzed: Jon Gibson / Standing On The One
--------------------------------------------------------------------------------

DR Peak RMS Duration Track
--------------------------------------------------------------------------------
DR10 -0.23 dB -12.63 dB 4:57 01-Start It All Again
DR9 0.00 dB -10.68 dB 5:35 02-She Told Me So
DR9 -0.15 dB -10.73 dB 4:49 03-Standing On The One
DR8 -0.17 dB -10.50 dB 3:15 04-That Ain't No Way To Live
DR9 0.00 dB -10.99 dB 4:30 05-Are You Gonna Stay With Me Again
DR11 -0.39 dB -14.14 dB 3:50 06-I Love Her Anyway
DR9 -0.28 dB -11.28 dB 3:08 07-It's True
DR11 -0.15 dB -12.90 dB 4:40 08-So In Love With You
DR9 -0.20 dB -11.17 dB 3:52 09-Nation In Need
DR9 -0.09 dB -10.79 dB 3:43 10-She Told Me So (Radio Mix)
--------------------------------------------------------------------------------

Number of tracks: 10
Official DR value: DR10

Samplerate: 44100 Hz
Channels: 2
Bits per sample: 16
Bitrate: 969 kbps
Codec: ALAC
================================================================================